Spider-Man Homecoming 2017 New 720p TS x264 TiTAN

  • Category Movies
  • Type Divx/Xvid
  • Language English
  • Total size 3.0 GB
  • Uploaded By mazemaze16
  • Downloads 8231
  • Last checked 3 days ago
  • Date uploaded 1 week ago
  • Seeders 838
  • Leechers 334

Spider-Man: Homecoming

ActionAdventureScience Fiction

Following the events of Captain America: Civil War, Peter Parker, with the help of his mentor Tony Stark, tries to balance his life as an ordinary high school student in Queens, New York City, with fighting crime as his superhero alter ego Spider-Man as a new threat, the Vulture, emerges.

Infohash : 283AF8C333161E60CD770E936983257F09D9CB82

Spider-Man Homecoming 2017 NEW TS HC XviD-TiTAN  




Spider-Man.Homecoming.2017.NEW.TS.READNFO.XviD-TiTAN

Sources Used: Video - NoGRP and 26K /// Audio - TapFM

NOTES: This was alot of work, got passed a nice cam, but it was filmed sideways, came in 7 parts and had a bit of movement, up and down mainly, cut the vid into further pieces on each piece, to fix rotation, perspective etc, adding borders to compensate, had to add parts from 26k cam to fill in the gaps, a few mins each, firstly at 25.51, then again at 1hr 27, then at 1hr 53 until the end, included an after credit scene in a seperate folder..didnt bother cropping as it will give the nubs something to do

Line audio had hiss/hum removal/normalisation only using goldwave then synced with 7 cuts, enjoy.

http://www.imdb.com/title/tt2250912/

Peter Parker, with the help of his mentor Tony Stark, tries to balance his life as an ordinary high school student in New York City while fighting crime as his superhero alter ego Spider-Man when a new threat emerges.

General
Complete name                            : Spider-Man.Homecoming.2017.NEW.TS.READNFO.XviD-TiTAN.avi
Format                                   : AVI
Format/Info                              : Audio Video Interleave
File size                                : 1.62 GiB
Duration                                 : 2 h 4 min
Overall bit rate                         : 1 857 kb/s
Writing library                          : VirtualDub build 35491/release

Video
ID                                       : 0
Format                                   : MPEG-4 Visual
Format profile                           : Advanced [email protected]
Format settings, BVOP                    : 2
Format settings, QPel                    : No
Format settings, GMC                     : No warppoints
Format settings, Matrix                  : Default (H.263)
Muxing mode                              : Packed bitstream
Codec ID                                 : XVID
Codec ID/Hint                            : XviD
Duration                                 : 2 h 4 min
Bit rate                                 : 1 589 kb/s
Width                                    : 720 pixels
Height                                   : 400 pixels
Display aspect ratio                     : 16:9
Frame rate                               : 29.970 (30000/1001) FPS
Color space                              : YUV
Chroma subsampling                       : 4:2:0
Bit depth                                : 8 bits
Scan type                                : Progressive
Compression mode                         : Lossy
Bits/(Pixel*Frame)                       : 0.184
Stream size                              : 1.39 GiB (86%)
Writing library                          : XviD 73

Audio
ID                                       : 1
Format                                   : MPEG Audio
Format version                           : Version 1
Format profile                           : Layer 3
Codec ID                                 : 55
Codec ID/Hint                            : MP3
Duration                                 : 2 h 4 min
Bit rate mode                            : Constant
Bit rate                                 : 256 kb/s
Channel(s)                               : 2 channels
Sampling rate                            : 44.1 kHz
Compression mode                         : Lossy
Delay relative to video                  : 8 s 0 ms
Stream size                              : 228 MiB (14%)
Alignment                                : Split accross interleaves
Interleave, duration                     : 33  ms (1.00 video frame)
Interleave, preload duration             : 500  ms


Screens:

Files:

Spider-Man Homecoming 2017 New 720p TS x264 TiTAN
  • Spider-Man Homecoming 2017 New 720p TS x264 TiTAN.mkv (3.0 GB)
  • Spider-Man Homecoming 2017 New 720p TS x264 TiTAN.nfo (3.0 KB)

Comments

Code:

  • udp://tracker.ilibr.org:6969/announce
  • udp://9.rarbg.com:2710/announce
  • udp://9.rarbg.to:2710/announce
  • udp://tracker.leechers-paradise.org:6969/announce
  • udp://eddie4.nl:6969/announce
  • udp://ipv4.tracker.harry.lu:80/announce
  • udp://explodie.org:6969/announce
  • udp://p4p.arenabg.com:1337/announce
  • udp://p4p.arenabg.ch:1337/announce
  • udp://tracker.zer0day.to:1337/announce
  • udp://tracker.opentrackr.org:1337/announce
  • udp://tracker.ilibr.org:80/announce
  • udp://tracker.coppersurfer.tk:6969/announce
  • udp://tracker.coppersurfer.tk:6969
  • udp://9.rarbg.me:2710/announce